#TITLE:Funky Jockey;
#SUBTITLE:;
#ARTIST:Bok;
#TITLETRANSLIT:;
#SUBTITLETRANSLIT:;
#ARTISTTRANSLIT:;
#CREDIT:;
#BANNER:;
#BACKGROUND:Funky Jockey-BG.png;
#LYRICSPATH:;
#CDTITLE:;
#MUSIC:Funky Jockey.mp3;
#MUSICLENGTH:100.027;
#OFFSET:-0.075;
#SAMPLESTART:3.880;
#SAMPLELENGTH:12.000;
#SELECTABLE:YES;
#BPMS:0.000=116.940;
#STOPS:;
#BGCHANGES:;
#FIRSTBEAT:8.000;

#LASTBEAT:195.500;

#SONGFILENAME:Songs/EXTRA/Funky Jockey/Funky Jockey.sm;

#HASMUSIC:1;

#HASBANNER:0;


//---------------dance-single - BASIC----------------
#NOTES:
     dance-single:
     BASIC:
     easy:
     3:
     0.197,0.239,0.320,0.020,0.000,104.000,32.000,2.000,0.000,0.000:



0000
0000
0000
0000
,
0000
0000
0000
0000
,
1001
0000
1000
0000
,
0001
0000
0100
0100
,
0010
0000
0001
0000
,
1000
0000
0100
0100
,
0010
1000
0100
0001
,
0010
1000
0100
0001
,
0010
1000
0100
0001
,
0010
1000
0100
0001
,
1001
0000
0000
0000
,
0110
0000
0000
0000
,
1100
0000
0101
0000
,
1001
0000
0000
0000
,
1001
0000
0000
0000
,
0110
0000
0000
0000
,
0011
0000
1010
0000
,
1001
0000
0000
0000
,
1000
0000
0100
0000
,
0010
0001
0100
1000
,
0010
0001
0100
1000
,
0010
0001
0100
1000
,
0010
1000
0100
0001
,
0010
1000
0100
0001
,
0010
1000
0100
0001
,
0010
1000
0100
0001
,
0010
0001
0100
1000
,
0010
0001
0100
1000
,
0010
0001
0100
1000
,
0010
0001
0100
1000
,
1001
0000
0000
0000
,
0110
0000
0000
0000
,
1100
0000
0101
0000
,
1001
0000
0000
0000
,
1001
0000
0000
0000
,
0110
0000
0000
0000
,
0011
0000
1010
0000
,
1001
0000
0000
0000
,
0001
0000
0000
0000
,
1001
0000
0000
0000
,
0110
0000
0000
0000
,
1100
0000
0101
0000
,
1001
0000
0000
0000
,
1001
0000
0000
0000
,
0110
0000
0000
0000
,
0011
0000
1010
0000
,
1001
0000
0000
0000
,
0220
0000
0000
0000
0000
0000
0000
0330;

//---------------dance-single - ANOTHER----------------
#NOTES:
     dance-single:
     ANOTHER:
     medium:
     5:
     0.331,0.436,0.310,0.040,0.010,197.000,31.000,4.000,0.000,0.000:



0000
0000
0000
0000
,
0000
0000
0000
0000
,
0010
0010
0010
0000
,
0100
0100
0100
0000
,
1000
1000
1000
0000
,
0001
0001
0001
0000
,
0010
1000
0001
0100
,
0100
0010
0100
1000
,
0010
0001
1000
0100
,
0100
0010
0100
0001
,
1000
1000
0010
0100
,
0001
0001
0010
0100
,
0010
0010
1000
0001
,
0100
0100
0001
1000
,
1000
1000
0010
0100
,
0001
0001
0010
0100
,
0010
0010
1000
0001
,
0100
0100
0001
1000
,
1001
1001
0000
0000
0110
0110
0000
0000
,
0010
1000
0100
0000
0001
0000
0001
0000
,
1000
1000
0000
0010
0010
0000
0100
0100
,
0100
0000
0001
0000
,
1001
0100
0010
1000
0100
1000
0001
1000
,
0001
0010
0100
1000
0010
1000
0001
0100
,
1000
0000
0001
0000
1000
0000
0000
0000
1010
0000
0000
0011
0000
0000
0000
0000
,
0010
0000
0100
0000
0010
0000
0000
0000
1100
0000
0000
0101
0000
0000
0000
0000
,
0010
1000
0100
1000
0010
0001
0010
0001
,
1000
0100
1000
0100
1000
0100
0000
0000
,
0010
1000
0100
1000
0010
0001
0010
0001
,
1000
0100
1000
0100
1000
0100
0000
0000
,
1001
1000
0001
0010
,
0110
0010
0100
1000
,
1010
0010
1000
0010
,
0011
0010
0001
0010
,
1100
1000
0100
1000
,
0101
0001
0100
0001
,
0110
0010
0110
0100
,
1001
1000
1001
0001
,
2002
0000
0000
3003
,
1001
1000
0001
0010
,
0110
0010
0100
1000
,
1010
0010
1000
0010
,
0011
0010
0001
0010
,
1100
1000
0100
1000
,
0101
0001
0100
0001
,
0110
0010
0110
0100
,
1001
1000
1001
0001
,
2002
0000
0000
0000
,
0000
0000
3003
0000;

//---------------dance-single - MANIAC----------------
#NOTES:
     dance-single:
     MANIAC:
     hard:
     7:
     0.416,0.489,0.280,0.110,0.000,252.000,28.000,11.000,0.000,0.000:



0000
0000
0000
0000
,
0000
0000
0000
0000
,
1000
0000
0001
0000
1000
0001
1000
0000
,
0010
0000
0100
0000
0010
0100
0010
0000
,
0001
0000
1000
0000
0001
1000
0001
0000
,
0100
0000
0010
0000
0100
0010
0100
0000
,
1010
0000
0101
0000
1000
1000
1000
0000
,
0101
0000
1010
0000
0001
0001
0001
0000
,
0011
0000
1100
0000
0010
0010
0010
0000
,
1100
0000
0011
0000
0100
0100
0100
0000
,
1000
0100
0001
0100
1000
0100
0001
0100
,
1000
0010
0001
0010
1000
0010
0001
0010
,
1000
0001
1000
0001
0100
0010
0100
0010
,
1100
1100
0101
0101
1001
0000
0000
0000
,
0001
0010
1000
0010
0001
0010
1000
0010
,
0001
0100
1000
0100
0001
0100
1000
0100
,
0001
1000
0001
1000
0010
0100
0010
0100
,
0011
0011
1010
1010
1001
0000
0000
0000
,
1100
0101
0000
0000
1010
0011
0000
0000
,
0010
1000
0100
0000
0010
0001
0100
0000
,
1000
0100
0001
0000
0001
0100
1000
0000
,
0100
0001
0010
0000
0100
1000
0010
0000
,
1000
0010
0001
0000
0001
0010
1000
0000
,
0010
0010
0001
0000
0001
0001
0100
0000
,
0100
0100
1000
0000
1000
1000
0010
0000
,
0010
0001
0010
0000
0001
0100
0001
0000
,
0100
1000
0100
0000
1000
0010
1000
0000
,
1000
0001
1000
0000
0001
1000
0001
0000
,
0010
0100
0010
0000
0100
0010
0100
0000
,
1000
1000
1000
0000
0001
0001
0001
0000
,
2001
0010
0010
0100
,
0100
0001
0001
3001
,
1002
0010
0010
0100
,
0100
1000
1000
1003
,
0210
1000
0010
0001
,
0010
1000
0010
0310
,
0120
1000
0100
0001
,
0100
1000
0100
0130
,
1000
0001
0000
0001
0100
0000
0000
0000
,
2000
0001
0020
3000
,
0100
0000
0100
0000
0100
0100
0130
0000
,
0002
1000
0200
0003
,
0010
0000
0010
0000
0010
0010
0310
0000
,
1020
1000
1000
0000
0100
0100
0100
0000
,
0001
0001
0001
0000
1000
1000
1030
0000
,
0201
0001
0001
0000
0010
0010
0010
0000
,
1000
1000
1000
0000
0001
0001
0300
0000
,
0010
1000
0001
0100
0010
1000
0001
0100
,
0020
0000
0000
0000
0000
0000
0000
0030;

//---------------dance-single - SMANIAC----------------
#NOTES:
     dance-single:
     SMANIAC:
     challenge:
     9:
     0.551,0.800,0.210,0.170,0.320,348.000,21.000,17.000,0.000,0.000:



0000
0000
0000
0000
,
0000
0000
0000
0000
,
1000
0000
0100
0000
0010
0000
0001
0000
1000
0000
0100
0010
0100
0000
0000
0000
,
0010
0000
0001
0000
0000
0000
1000
0000
0100
0000
0010
0100
0010
0000
0000
0000
,
1000
0100
1000
0000
0001
0010
0001
0000
,
0010
1000
0001
1000
0000
1000
0101
0000
,
0100
0001
1000
0010
0100
0010
0100
0000
,
1000
0001
1000
0000
0001
1000
0001
0000
0010
0000
0001
0000
0000
0000
0000
0000
,
1000
0010
0100
0010
0001
0010
1000
0000
,
0010
1100
0000
1100
0000
1100
0001
1000
,
0010
0100
0001
0100
0020
0000
1030
0000
,
1000
0001
0010
0001
2000
0000
3100
0000
,
0100
0010
0100
0001
0100
1000
0100
0010
,
0100
0000
0010
0000
0100
0000
1000
0001
0000
0000
0002
0000
0000
0000
0003
0000
,
1000
0100
1000
0010
0100
0100
0010
0100
,
0001
1000
0100
2000
0000
0000
3000
0000
,
0110
1000
0110
0001
0110
1000
0110
0001
,
1000
0000
0100
0000
0001
0000
0100
1000
0000
0000
2000
0000
0000
0000
3010
0000
,
0001
0000
0001
0000
0000
0000
0000
0100
1000
0000
1000
0000
0000
0000
0010
0001
,
1000
1000
0100
0100
0010
0010
0001
0001
,
0000
0100
0000
0100
0000
0100
0000
0100
,
1000
0100
1000
0001
0001
0001
0001
0000
,
1000
0100
1000
0100
0010
0001
0010
0001
0100
0001
0100
0001
1000
0010
1000
0010
,
1000
0001
1000
0001
1000
0100
1000
0100
0010
0100
0010
0100
0001
0100
0001
0100
,
1000
0100
1000
0100
0010
0001
0010
0001
1000
0000
0000
1000
0000
0000
0100
0010
,
0100
0000
0100
0000
0010
0000
0010
0000
0001
0000
0000
1000
0000
0000
0000
0000
,
0010
0001
0010
0001
0010
0001
0010
0001
1000
0000
0010
0001
0010
0000
0000
0000
,
0010
1000
0010
1000
0010
1000
0010
1000
0010
0000
0010
1000
0010
0000
0000
0000
,
1000
0000
0100
0000
0010
0000
0001
0000
1000
0100
0010
0001
1000
0000
0001
0000
,
1000
0000
0100
0000
0010
0000
0001
0000
1000
0100
0010
0001
1000
0000
1000
0000
,
0010
0000
0010
0000
0100
0000
0100
0000
0010
0000
0000
0000
1000
0000
0001
1000
,
0000
1000
0001
0010
0001
0000
1100
0000
,
0010
0000
0001
0000
1000
0000
0100
0000
1000
0000
1000
0000
0100
0000
0010
0001
,
0000
0000
0001
0000
0100
0000
0100
0001
0000
0000
0001
0000
1001
0000
0000
0000
,
0010
0000
0100
0000
1000
0000
0100
0000
0020
0000
0000
0000
0130
0000
0000
0001
,
1000
0001
1000
0000
,
1000
0000
0001
0000
1000
0100
1000
0100
0010
0000
0100
0000
0010
0000
0000
0000
,
1100
1100
0011
0011
0110
0110
0000
0000
,
2002
0000
0000
3003
,
2000
0000
3000
0000
2000
0000
3000
0000
1000
0100
0010
0001
0010
0000
0000
0000
,
0002
0000
0003
0000
0002
0000
0003
0000
0001
0010
0100
1000
0100
0000
0000
0000
,
0100
1000
0100
0001
0100
1000
0010
0001
,
0010
0001
0010
1000
0100
1000
0100
0000
,
2000
0000
3000
0000
2000
0000
3000
0000
1000
0100
0010
0001
0010
0000
0000
0000
,
0002
0000
0003
0000
0002
0000
0003
0000
0001
0010
0100
1000
0100
0000
0000
0000
,
0010
0001
0001
1000
0100
0100
0010
0100
,
0010
0000
1100
1100
0000
0011
0011
0000
,
1000
0100
0000
0100
0000
0100
0000
0100
0000
0100
1000
0000
0001
0000
1000
0000
,
0002
0000
0003
0000;
